Музыкальный форум с бесплатной загрузкой песен
 «MP3SORT.BIZ» 
  МУЗЫКАЛЬНЫЙ ФОРУМ С БЕСПЛАТНОЙ ЗАГРУЗКОЙ ПЕСЕН!!!  
РЕГИСТРАЦИЯ!!!!! ПРАВИЛА ВХОД НА ФОРУМ


 ОТВЕТИТЬ   МУЗЫКАЛЬНЫЙ ФОРУМ «MP3SORT.BIZ» -> БЕСПЛАТНАЯ МУЗЫКА, ЗАГРУЖЕННАЯ УЧАСТНИКАМИ

Группа Muse

АВТОР: СООБЩЕНИЕ:
Mamzelkin


 МУЗЫКАЛЬНЫЙ ГЕНИЙ 

Участник: 518415
Регистрация: 04.03.2009
Сообщений на форуме: 100
(Хмельницкий)


 Благодарности: 1589 

Сообщение №1 (23.08.2009 00:45) Группа Muse

09.12.2015 М

Прогулявшись по этому славному форуму (Дай Бог всем здоровья и счастья - столько музона!!!, я не смог найти ничего про свою любимую группу, кроме как пары песен и одного альбома, а также в обсуждениях их творчества парочки заметок. Поэтому восполняю сей пробел в славной работе сайта и выкладываю всю дискографию группы поальбомно:

Muse Absolution (2003)

Muse - Apocalypse Please.mp3
Muse - Blackout.mp3
Muse - Butterflies & Hurricanes.mp3
Muse - Endlessly.mp3
Muse - Falling Away With You.mp3
Muse - Hysteria.mp3
Muse - Interlude.mp3
Muse - Intro.mp3
Muse - Ruled By Secrecy.mp3
Muse - Sing For Absolution.mp3
Muse - Stockholm Syndrome.mp3
Muse - The Small Print.mp3
Muse - Thoughts Of A Dying Atheist.mp3
Muse - Time Is Running Out.mp3


 СКАЧАТЬ 



Muse Black Holes And Revelations (2006)
Muse - Assassin.mp3
Muse - City Of Delusion.mp3
Muse - Exo-Politics.mp3
Muse - Hoodoo.mp3
Muse - Invincible.mp3
Muse - Knights Of Cydonia.mp3
Muse - Map Of The Problematique.mp3
Muse - Soldier`s Poem.mp3
Muse - Starlight.mp3
Muse - Supermassive Black Hole.mp3
Muse - Take A Bow.mp3


 СКАЧАТЬ 



Muse Showbiz (1999)
Muse - Cave.mp3
Muse - Escape.mp3
Muse - Falling Down.mp3
Muse - Fillip.mp3
Muse - Hate This & I`ll Love You.mp3
Muse - Muscle Museum.mp3
Muse - Nishe.mp3
Muse - Overdue.mp3
Muse - Showbiz.mp3
Muse - Sobe.mp3
Muse - Sunburn.mp3
Muse - Unintended.mp3
Muse - Uno.mp3


 СКАЧАТЬ 




Muse H.A.A.R.P Live From Wembley Stadium

1.Muse - H A A R P Live From Wembley Stadium - Intro.mp3
2.Muse - H A A R P Live From Wembley Stadium - Knights Of Cydonia.mp3
3.Muse - H A A R P Live From Wembley Stadium - Hysteria.mp3
4.Muse - H A A R P Live From Wembley Stadium - Supermassive Black Hole.mp3
5.Muse - H A A R P Live From Wembley Stadium - Map Of The Problematique.mp3
6.Muse - H A A R P Live From Wembley Stadium - Butterflies Hurricanes.mp3
7.Muse - H A A R P Live From Wembley Stadium - Invincible.mp3
8.Muse - H A A R P Live From Wembley Stadium - Starlight.mp3
9.Muse - H A A R P Live From Wembley Stadium - Time Is Running Out.mp3
10.Muse - H A A R P Live From Wembley Stadium - New Born.mp3
11.Muse - H A A R P Live From Wembley Stadium - Unintended.mp3
12.Muse - H A A R P Live From Wembley Stadium - Micro Cuts.mp3
13.Muse - H A A R P Live From Wembley Stadium - Stockholm Syndrome.mp3
14.Muse - H A A R P Live From Wembley Stadium - Take A Bow.mp3


 СКАЧАТЬ 



Как только ребята выпустят новую пластинку, она сразу будет тут загружена. Всем приятного прослушивания!

дополнение: саунд к титрам фильма Интернэшнл в исполнении Мета Белами

 СКАЧАТЬ 

Музыкальная Благодарность

 Поблагодарили 11: 

(MP3 MUSIC) (plotter) (PalO96) (Miha) (Viacheslavik) (berolina) (svlad)
Mamzelkin


 МУЗЫКАЛЬНЫЙ ГЕНИЙ 

Участник: 518415
Регистрация: 04.03.2009
Сообщений на форуме: 100
(Хмельницкий)


 Благодарности: 1589 

Сообщение №2 (20.12.2009 11:42) Группа Muse

К сожалению второй части найти не смог, может кому-нибуть другому улыбнется удача. :)

Вот эще парочка песен от наших любимцев:

Muse - In Your World

 СКАЧАТЬ 

Музыкальная Благодарность

 Поблагодарили 4: 

(MP3 MUSIC) (PalO96) (berolina)
Mamzelkin


 МУЗЫКАЛЬНЫЙ ГЕНИЙ 

Участник: 518415
Регистрация: 04.03.2009
Сообщений на форуме: 100
(Хмельницкий)


 Благодарности: 1589 

Сообщение №3 (18.02.2010 15:02) Группа Muse

Наконец я нашел полный альбом MUSE - Hullabaloo - это саундтрек к их одноименному концерту (где и когда был проведен так и не понял). Здесь выложен японский релиз - 2 CD. Альбом собран в 2 файла формата mp3 (не было времени резать на треки, да и вообще Muse хорошо слушается именно целыми альбомами).


MUSE Hullabaloo (Japanese) CD1

TRACK 01 Forced In
INDEX 01 00:00:00

TRACK 02 Shrinking Universe
INDEX 01 04:18:04

TRACK 03 Recess
INDEX 00 07:24:27
INDEX 01 07:24:43

TRACK 04 Yes Please
INDEX 01 11:00:3

TRACK 05 Map of Your Head
INDEX 01 14:05:62

TRACK 06 Nature 1
INDEX 01 18:29:46

TRACK 07 Shine Acoustic
INDEX 01 22:08:55

TRACK 08 Ashamed
INDEX 01 27:21:03

TRACK 09 Jimmy Kane
INDEX 00 31:08:59
INDEX 01 31:08:65

TRACK 10 The Gallery
INDEX 00 34:35:44
INDEX 01 34:35:59

TRACK 11 Hyper Chondriac Music
INDEX 01 38:06:36


***

MUSE - Hullabaloo (Japanese) CD2

TRACK 01 Dead Star
INDEX 00 00:00:00
INDEX 01 02:21:10

TRACK 02 Microcuts
INDEX 01 06:31:25

TRACK 03 Citizen Erased
INDEX 01 10:02:05

TRACK 04 Showbiz
INDEX 01 17:23:47

TRACK 05 Sunburn (Piano)
INDEX 01 21:52:07

TRACK 06 Megalomania
INDEX 01 26:56:32

TRACK 07 Dark Shines (Bonus Track)
INDEX 01 31:33:07

TRACK 08 Screenager
INDEX 01 36:09:62

TRACK 09 Space Dementia
INDEX 01 40:32:40

TRACK 10 In Your World
INDEX 01 46:05:22

TRACK 11 Muscle Museum
INDEX 01 49:15:67

TRACK 12 Agitated
INDEX 01 53:45:02




 СКАЧАТЬ 

Музыкальная Благодарность

 Поблагодарили 3: 

(MP3 MUSIC) (PalO96) (berolina) (svlad)
Mamzelkin


 МУЗЫКАЛЬНЫЙ ГЕНИЙ 

Участник: 518415
Регистрация: 04.03.2009
Сообщений на форуме: 100
(Хмельницкий)


 Благодарности: 1589 

Сообщение №4 (18.02.2010 22:29) Группа Muse

Мини альбомы (ЕР):


Muse EP (1998)



Продолжительность: 15:59
Размер: 37 mb (3% восст.)

Tracklist:
01 - Overdue
02 - Cave
03 - Coma
04 - Escape




 СКАЧАТЬ 



Muscle Museum EP (1999)



Продолжительность: 20:48
Размер: 49 mb (3% восст.)

Tracklist:
01 - Muscle Museum
02 - Sober
03 - Uno
04 - Unintended
05 - Instant Messenger
06 - (Muscle Museum)#2




 СКАЧАТЬ 

Музыкальная Благодарность

 Поблагодарили 1: 

(MP3 MUSIC) (svlad)
Mamzelkin


 МУЗЫКАЛЬНЫЙ ГЕНИЙ 

Участник: 518415
Регистрация: 04.03.2009
Сообщений на форуме: 100
(Хмельницкий)


 Благодарности: 1589 

Сообщение №5 (18.02.2010 23:17) Группа Muse

И на закуску
Muse - A house of the rising sun (Animals cover)

 СКАЧАТЬ 

Музыкальная Благодарность

 Поблагодарили 3: 

(MP3 MUSIC) (September000) (Miha) (berolina)
Mamzelkin


 МУЗЫКАЛЬНЫЙ ГЕНИЙ 

Участник: 518415
Регистрация: 04.03.2009
Сообщений на форуме: 100
(Хмельницкий)


 Благодарности: 1589 

Сообщение №6 (19.02.2010 12:18) Группа Muse

Демо:


Newton Abbot demo (1997)

Продолжительность: 43:10
Размер: 106 mb (3% восст.)

Tracklist:
01 - Falling With the Crowd
02 - Agitated
03 - Coma
04 - Balloonatic
05 - Forameus
06 - Boredom
07 - Crazy Days
08 - Sober
09 - Jimmy Kane
10 - Rain
11 - Ashamed



 СКАЧАТЬ 



Sunburn-Overdue demo (1999)

Продолжительность: 06:40
Размер: 16 mb (3% восст.)

Tracklist:
01 - Sunburn
02 - Overdue



 СКАЧАТЬ 

Музыкальная Благодарность

 Поблагодарили 2: 

(MP3 MUSIC) (PalO96) (svlad)
Mamzelkin


 МУЗЫКАЛЬНЫЙ ГЕНИЙ 

Участник: 518415
Регистрация: 04.03.2009
Сообщений на форуме: 100
(Хмельницкий)


 Благодарности: 1589 

Сообщение №7 (19.02.2010 12:24) Группа Muse

Синглы:




 СКАЧАТЬ 

^torr/muse_alac/sbs_uno.jpg

Uno (Single) (1999)

Продолжительность: 12:18
Размер: 29 mb (3% восст.)

Tracklist:
01 - Uno
02 - Jimmy Kane
03 - Forced In



 СКАЧАТЬ 





 СКАЧАТЬ 

^torr/muse_alac/sbs_musclemuseum1.jpg

Muscle Museum (Single) (1999)

Продолжительность: CD1: 13:27 | CD2: 13:53
Размер: 64 mb (3% восст.)

CD1 Tracklist:
01 - Muscle Museum (Album version)
02 - Do We Need This
03 - Muscle Museum (Live acoustic)



 СКАЧАТЬ 

^torr/muse_alac/sbs_musclemuseum2.jpg

CD2 Tracklist:
01 - Muscle Museum (Full length version)
02 - Pink Ego Box
03 - Con-Science



 СКАЧАТЬ 





 СКАЧАТЬ 

^torr/muse_alac/sbs_unintended1.jpg

Unintended (Single) (2000)

Продолжительность: CD1: 12:49 | CD2: 11:45
Размер: 57 mb (3% восст.)

CD1 Tracklist:
01 - Unintended
02 - Recess
03 - Falling Down (Acoustic Ouï FM)



 СКАЧАТЬ 

^torr/muse_alac/sbs_unintended2.jpg

CD2 Tracklist:
01 - Unintended
02 - Nishe
03 - Hate This and I`ll Love You (Acoustic Ouï FM)



 СКАЧАТЬ 





 СКАЧАТЬ 

^torr/muse_alac/sym_pluginbaby1.jpg

Plug in Baby (Single) (2001)

Продолжительность: CD1: 09:49 | CD2: 11:04
Размер: 49 mb (3% восст.)

CD1 Tracklist:
01 - Plug In Baby
02 - Nature_1
03 - Execution Commentary



 СКАЧАТЬ 

^torr/muse_alac/sym_pluginbaby2.jpg

CD2 Tracklist:
01 - Plug In Baby
02 - Spiral Static
03 - Bedroom Acoustics



 СКАЧАТЬ 



плюс одним файлом mp3:

TRACK 01 Plug In Baby`
INDEX 01 00:00:00

TRACK 02 Nature1
INDEX 00 03:40:02
INDEX 01 03:41:02

TRACK 03 Execution Commentary
INDEX 00 07:20:20
INDEX 01 07:21:70

TRACK 04 Bedroom Acoustics
INDEX 00 09:49:73
INDEX 01 09:50:25



 СКАЧАТЬ 





 СКАЧАТЬ 

^torr/muse_alac/sym_feelinggood.jpg

Feeling Good-Hyper Music (Single) promo (2001)

Продолжительность: 06:18
Размер: 15 mb (3% восст.)

Tracklist:
01 - Feeling Good (Radio edit)
02 - Hyper Music (Radio edit)



 СКАЧАТЬ 



Stockholm Syndrome (Single) promo [USA (2003)

Продолжительность: 09:03
Размер: 21 mb (3% восст.)

Tracklist:
01 - Stockholm Syndrome (Edit)
02 - Stockholm Syndrome (Album version)



 СКАЧАТЬ 



Hysteria (Single) [Germany (2003)

Продолжительность: 14:04
Размер: 33 mb (3% восст.)

Tracklist:
01 - Hysteria
02 - Eternally Missed
03 - Hysteria (live @ Zenith Munich)



 СКАЧАТЬ 



Sing For Absolution (Single) promo (2004)

Продолжительность: 08:41
Размер: 20 mb (3% восст.)

Tracklist:
01 - Sing for Absolution (Radio edit)
02 - Sing for Absolution (Album version)



 СКАЧАТЬ 



Butterflies & Hurricanes (Single) promo (2004)

Продолжительность: 09:24
Размер: 22 mb (3% восст.)

Tracklist:
01 - Butterflies & Hurricanes (Radio edit)
02 - Butterflies & Hurricanes (Full length version)



 СКАЧАТЬ 



Starlight (Single) New Mix promo (2006)

Продолжительность: 04:01
Размер: 10 mb (3% восст.)

Tracklist:
01 - Starlight (New mix)



 СКАЧАТЬ 



Knights of Cydonia (Single) Radio Edit (2006)

Продолжительность: 04:50
Размер: 11 mb (3% восст.)

Tracklist:
01 - Knights of Cydonia (Radio Edit)



 СКАЧАТЬ 



Invincible (Single) promo [Australia (2007)

Продолжительность: 04:10
Размер: 10 mb (3% восст.)

Tracklist:
01 - Invincible (Radio Edit)



 СКАЧАТЬ 



Map of The Problematique (Single) Remix promo (2007)

Продолжительность: 04:24
Размер: 10 mb (3% восст.)
Tracklist:
01 - Map of the Problematique (Does It Offend You, Yeah? Remix)



 СКАЧАТЬ 

Музыкальная Благодарность

 Поблагодарили 3: 

(MP3 MUSIC) (PalO96) (Miha) (svlad)
 ОТВЕТИТЬ 
Страница 1 из 1

ПОХОЖИЕ ТЕМЫ:
Группа `Кармэн`
группа Воскресенье `Мне говорили` (жизнь - это пятна)
Олег Сачков и группа Миньон - альбом `Милая девчонка` (1990)
группа Стрелки `На вечеринке`
группа Иверия - Арго


Музыкальный Форум «MP3sort.biz»